despicable me 2 streaming eng sub ita

 

 

 

 

Despicable Me 2 Putting his past of a notorious crime, Gru tries to become a good father of his three daughters: Margo, Edith and Agnes. Hardly does he decides to retire, a international criminally organization emerges. More Pirate Streaming Websites Are Targeted in Australia.Despicable Me 2 (2013) BDrip 1080p ENG-ITA x264 - Cattivissimo Me 2 in Animation, by. You are watching the movie Despicable Me 2010 produced in USA, France belongs in Category ComedyWatch Despicable Me - 2010 in HD quality online for free, putlocker Despicable Me - 2010Me - 2010, download Despicable Me - 2010, watch Despicable Me - 2010 with HD streaming. Despicable Me 2 Imdb. Release infoDespicable Me 2 2013 720p BluRay x264-All Bluray. Cattivissimo Me 2-Despicable Me 2 (2013).ita.eng.sub.ita.MIRCrew.ita.sub 63.24 KB.Duration : 1h 37mn Bit rate mode : Constant Bit rate : 448 Kbps Channel(s) : 6 channels Channel positions : Front: L C R, Side: L R, LFE Sampling rate : 48.

0 KHz Bit depth : 16 bits Compression mode : Lossy Stream Subscene Free Download subtitles of Despicable Me 2 (2013) Hollywood English movie on the biggest movie subtitles database in the world, Subscene.co.in.Despicable Me 2 (2013) Movie Subtitles. July 3, 2017 columbus 0 Comment. Stream movie Despicable Me 2.A mysterious vehicle using a huge magnet steals a highly potent mutagen known as PX-41 from a secret laboratory in the Arctic Circle.Black Jack: The Two Doctors of Darkness English Subbed. Despicable Me 3 - Gru meets his long-lost charming, cheerful, and more successful twin brother Dru who wants to team up with him for one last criminal heist. You are here > Home > Cattivissimo Me 3 - Despicable Me 3 (2017).H264.ita .eng.

sub.ita.eng.MIRCrew.[MKV] Torrent Download. Cattivissimo Me 2-Despicable Me 2 (2013).ita.eng.sub.ita.MIRCrew/Cattivissimo Me 2 - Puppy (2013).avi.Despicable.Me.2.2013.720p.BluRay.x264-NeZu [Isohunt.to] Download from Movies. Stream torrent.vostfr, Despicable Me 3 streaming ita, Despicable Me 3 streaming sub indo, Despicable Me 3 streaming hd, Despicable Me 3 streaming vfcb01, Despicable Me 3 stream deutsch, Despicable Me 3 streaming eng, Despicable Me 3 streaming fr, Despicable Me 3 streaming full movie Cattivissimo Me 2-Despicable Me 2 (2013).ita.eng.sub.ita.MIRCrew.ita.sub 63.24 KB.Duration : 1h 37mn Bit rate mode : Constant Bit rate : 448 Kbps Channel(s) : 6 channels Channel positions : Front: L C R, Side: L R, LFE Sampling rate : 48.0 KHz Bit depth : 16 bits Compression mode : Lossy Stream Quality: HD. Keywords: Despicable Me 2.Free movie Despicable Me 2 with English Subtitles. English Subtitles(6).Watch Despicable Me 2 2013 With Subtitles. Link 1. Director: Chris Renaud and Pierre Coffin. Sequel to " Gru, my favorite villain .". Running time: 1:38:00. HOME DMCA. Despicable Me 2 (2013) [DVDrip ITA-ENG sub ITA-ENG]. MAGNET DOWNLOAD. Posted on July 24, 2013 in Other.Percy Jackson Sea of Monsters 2013 DVDrip ITA ENG sub ITA ENG. Stream: Watch Full Movie Movie4u. Last Updated: 2017-07-29 18:23:29 (Update Now).Hummingbird (2013) Bdrip XviD ENG-ITA subs - Redemption Identit Nascos » :][[ ( http://primego.pro/CinemaxMovie-PT ) ]][: Despicable Me 2 fullMoViE DespicableMe2 » » Despicable Me 2 F Stream Torrent File Content (6 files). Cattivissimo Me 2-Despicable Me 2 (2013). ita.eng.sub.ita.MIRCrew Cattivissimo Me 2 - Panic In The Mailroom (2013).avi You can use it to streaming on your TV.Watch Despicable Me 3 online Despicable Me 3 Free movie Despicable Me 3 Streaming Free movie Despicable Me 3 with English Subtitles. Despicable Me 3 In this adventure, Gru (Steve Carell) and his wife Lucy (Kristen Wiig) must stop his most formidable nemesis to date, former 80s child star Balthazar Bratt (Trey Parker), from achieving world domination. mode : Lossy Delay relative to video : -5ms Stream size : 246 MiB (19) Title : Eng Ac3 5.1 Language : English Default : No Forced : No.Cattivissimo Me 3 - Despicable Me 3 (2017).H264.ita.eng.sub.ita.eng .MIRCrew.eng.srt. You can use it to streaming on your TV.Watch Despicable Me 2 online Despicable Me 2 Free movie Despicable Me 2 Streaming Free movie Despicable Me 2 with English Subtitles. Balthazar Bratt, a child star from the 1980s, hatches a scheme for world domination. (Visited 999 times, 1 visits today). English (en) (zh-hans). Cattivissimo Me 2-Despicable Me 2 (2013).ita .eng.sub.ita.MIRCrew.avi. Adventure, animation, comedy. Director: Kyle Balda, Pierre Coffin. Starring: Andy Nyman, Dana Gaier, Jenny Slate and others. Despicable Me 3 (2017) Watch Online in Full length! Watch Despicable Me 3 Online. Share the"Cattivissimo Me 2-Despicable Me 2 (2013).ita.eng.sub.ita.MIRCrew" page to social network sitemake the download torrest more faster Trailer: Despicable Me 3. 123movies. You need to enable browsers cookie to stream. Click here for instruction. Watch Despicable Me 2 (2013) Online Free Full Movie Putlocker. Gru is recruited by the Anti-Villain League to help deal with a powerful new super criminal. English translation Manual subtitle by ryeoky9 eng sub from Aorion Versi HDTS Despicable.Me .Download Despicable Me 3 - Cattivissimo Me 3 (2017) H264 italian english Ac3-5 1 sub ita eng MIRCrew Torrent in HD Quality and All Available Formats. Director: Pierre Coffin, Chris Renaud. Starring: Ken Jeong, Benjamin Bratt, April Winchell and others. The plot is undisclosed at this time. Albanian. subtitle Despicable Me 2. sub. download. 4. Arabic.subtitle Despicable Me 2 3D 2013 BRRip 1080p x264 by alE13 AC3 DTS MA Core Dubbing PL Multi Subtitles Eng. The Way Way Back (2013) BDRip x265 ENG-ITA Aac subs - Cera Una Volta Unestate. Cloudy With A Chance of Meatballs 2 (2013) BDrip XviD ENG-ITA Ac3 subs - Piovono Polpette 2.despicable me 2. bdrip 1080p eng ita dts. Movies: Despicable Me 3 Director: Kyle Balda, Pierre Coffin, Eric Guillon Cast: Jenny Slate, Kristen Wiig, Steve Carell, Miranda Cosgrove Production Co: Genres: Animation, Action, Adventure Runtime: 96 min Country: USA Release Date: 2017. Get this torrent PLAY/STREAM TORRENT. (Problems with magnets links are fixed by upgrading your torrent client!) Despicable Me 2 (2013) BDrip x265 ENG-ITA Aac subs - Cattivissimo Me 2. Watch Despicable Me 2 (2013) Full Movie live Stream English Subtitle Year: 2013 Vote : 7.5 DespicableMe2 watch-DespicableMe2DespicableMe2 Full-Movie-dvd-quality-dvdrip-online-free-blu-ray-stream-no-download-high-quality-hd-live-megashare-gorillavid-streaming -UK Despicable Me 2 - Cattivissimo Me 2 (2013) 3 Specials 13 m. [XviD - Italian English Ac3 5.1 - Sub Ita Eng] MIRCrew.Constant Bit rate : 448 Kbps Channel(s) : 6 channels Channel positions : Front: L C R, Side: L R, LFE Sampling rate : 48.0 KHz Bit depth : 16 bits Compression mode : Lossy Stream worldwidetorrents.me Despicable Me 3 - Cattivissimo Me 3 (2017).H264.italian. english.Ac3-5.1.sub.ita.eng.MIRCrew Animation. 3 months. Information about the torrent Cattivissimo Me 2-Despicable Me 2 (2013). ita.eng.sub.ita.MIRCrew. Seeders, leechers and torrent status is updated several times per day. Director: Pierre Coffin, Chris Renaud. Starring: Animation. When Gru, the worlds most super-bad turned super-dad has been recruited by a team of officials to stop lethal muscle and a host of Grus own, He has to fight back with new gadgetry, cars, and more minion madness. Filmlinks4u.is Watch Movies Online from different languages like tamil, telugu, hindi, gujarati, english, punjabi, bengali and others.Me 2 dubbed online free streaming Despicable Me 2 hindi dubbed Full Movie Putlocker Despicable Me 2 in hindi Watch Online vodlocker watch Despicable Me 2 2013 Free movie Despicable Me 2 - 2013 with English Subtitles.No download, no surveys and only instant streaming of movies. The latest movies and highest quality for you. Enjoy your favorite movies with WATCH5S.TO. Despicable Me 2 2013 HDCAM READNFO x264 AAC-BadMeetsEvil.Cattivissimo.me.2010.1080p.ITA.ENG.DTS.AC3.SUB.LiFE.mkv.stream4.Cattivissimo Me 3 - Despicable Me 3 (2017).H264.ita.eng.sub.ita.eng.MIRCrew.mkv Format : Matroska.mode : Lossy Delay relative to video : -5ms Stream size : 246 MiB (19) Title : Eng Ac3 5.1 Language : English Default : No Forced : No. You have not yet voted download film despicable me 2 eng sub on this site! uploading.com Write us for more information . The.Selfish.Giant.Il.Gigante.Egoista.2013. ITA-ENG.Bluray.720p.CB01HD.part3.rar: download film Animation, family. Director: Chris Renaud, Pierre Coffin. Villainous Gru lives up to his reputation as a despicable, deplorable and downright unlikable guy when he hatches a plan to steal the moon from the sky. But he has a tough time staying on task after three orphans land in his care. Running time: 1:35:00. Cattivissimo Me 2 - Panic In The Mailroom (2013).avi. 43.37 MB.current location JAVHD > Magnet Download > Cattivissimo Me 2-Despicable Me 2 (2013).

ita.eng.sub.ita.MIRCrew . BluRay IDX/SUB. Arabic. Despicable.Me.2010.1080p.Blu-ray.DTS.x264-ViSTA Despicable.Me.2010.Blu-ray.Despicable Me[2010]DvDrip[Eng]-FXG. 2 years ago. Watch Despicable Me 2 (2013) Online Free Full Movie Putlocker. Gru is recruited by the Anti-Villain League to help deal with a powerful new super criminal.Watch Putlocker Despicable Me 2. Do you know what a VPN is? Despicable Me 3 (2017). Trailer.Report: Despicable Me 3. Please enter the code. Submit.

new posts


 

Leave a reply

 

Copyright © 2018.